Rio[2011]

    Rio[2011]
    elease Date : April 15th, 2011
    Title : Rio[2011]DvDrip FXG
    Starring :
    Karen Disher
    Jason Fricchione
    Sofia Scarpa Saldanha
    Leslie Mann
    Kelly Keaton and
    20 more cast & crew »
    Director : Carlos Saldanha
    Writer : Carlos Saldanha | Don Rhymer
    Studio : 20th Century Fox
    Genre : Animation | Adventure | 3D
    Official Site : rio-themovie.com
    Rating : for mild off color humor .
    Runtime : 1 hour 36 minutes


    Format : AVI
    Format/Info : Audio Video Interleave
    Format profile : OpenDML
    Duration : 2h 13mn
    Overall bit rate : 1 206 Kbps
    Writing application : VirtualDubMod 1.5.10.2 (build 2542/release)
    Writing library : VirtualDubMod build 2542/release
    Original source form : MAX TORRENTZ
    Copyright : SIGISMUNT

    Video
    ID : 0
    Format : MPEG-4 Visual
    Format profile : AdvancedSimple@L5
    Format settings, BVOP : Yes
    Format settings, QPel : No
    Format settings, GMC : No warppoints
    Format settings, Matrix : Default (H.263)
    Muxing mode : Packed bitstream
    Codec ID : XVID
    Codec ID/Hint : XviD
    Duration : 2h 13mn
    Bit rate : 1 010 Kbps
    Width : 640 pixels
    Height : 272 pixels
    Display aspect ratio : 2.35:1
    Frame rate : 23.976 fps
    Resolution : 24 bits
    Colorimetry : 4:2:0
    Scan type : Progressive
    Bits/(Pixel*Frame) : 0.242
    Stream size : 962 MiB (84%)
    Writing library : XviD 57

    Audio
    ID : 1
    Format : MPEG Audio
    Format version : Version 1
    Format profile : Layer 3
    Codec ID : 55
    Codec ID/Hint : MP3
    Duration : 2h 13mn
    Bit rate mode : Constant
    Bit rate : 192 Kbps
    Channel(s) : 2 channels
    Sampling rate : 48.0 KHz
    Resolution : 16 bits
    Stream size : 183 MiB (16%)
    Alignment : Aligned on interleaves
    Interleave, duration : 712 ms (17.08 video frames)
    Interleave, preload duration : 216 ms
    Writing library : LAME3.98.2

    Source: DVD (perfect a/v/sync quality+filtered audio with additional 400% volume , sample is included)


Дата: 8-08-2011, 14:46 | Автор: admin-gid | Просмотров: 44 | Комментарии: 0 | Теги:

Добавить комментарий

    
Ваше Имя:
Ваш E-Mail:
Введите два слова, показанных на изображении:

 
    

При использовании материалов активная ссылка на MisterGid.ru обязательна. Copyright © 2011 Push 2 Check Яндекс.Метрика